Home| All Programs| Today added Progs| Download Status| Customers opinion| Helpdesk| Shopping cart

Program Search:

Shopping Cart:




*Note: Minimum order cost: €20
Maximum Total Price: €1500
We Recommend:
5 Creative Woodworking Projects Bumper DIY Course €10 buy download

× 5 Creative Woodworking Projects | Bumper DIY Course Close
5 Creative Woodworking Projects | Bumper DIY Course
WEBRip | English | MP4 | 1280 x 720 | AVC ~2648 kbps | 30 fps
AAC | 128 Kbps | 44.1 KHz | 2 channels | Subs: English (.srt) | ~2.5 hours | 2.77 GB
Genre: eLearning Video / Woodworking
Simple planter, decorative planter, stackable vegetable planter, small aviary (animal enclosure) and bird table.What you'll learn
Build a stackable vegetable planter
Build a decorative wooden planter
Build a simple wooden planter
Build a bird table
Build a small aviary (animal enclosure)
Develop basic DIY and carpentry skills
Build something beautiful for your garden that you can be proud of :-)

Requirements
No DIY skills necessary; everything is explained in full for the complete beginner
Materials needed: depending on the project but to complete all the projects you will require: wooden decking boards, timber posts, screws and nails
Tools required: depending on the project but to complete all the projects you will need: saw, screwdriver, hammer, chisel, drill, hacksaw, tape measure, pencil and sandpaper

Description
In this bumper woodworking course, you will learn how to build a beautiful bird house, a small aviary (animal enclosure), three wooden garden planters: a simple planter, a more decorative planter and then a stackable vegetable planter.

Develop your skills

We’ll start off learning how to build a simple planter made out of decking boards. This course assumes no prior knowledge, so everything is explained in full and you no DIY experience. Once we’ve created the first planter, we will develop our skills further and apply them in building a much more decorative version of the first planter.

The good thing about both of these planters is that the materials required are relatively inexpensive, and the tools you’ll need can be found in any DIY shop and can be bought without spending a fortune. Because the materials are affordable, the projects in this course are great for developing and improving your DIY skills. The skills you learn can be applied to other DIY projects too.

As well as garden planters, I’ll show you how to build a very simple but very useful stackable vegetable planter. This planter can be completely bespoke, and you can make it as tall or short as you like and arrange it into an array of different designs. I’ve called it a vegetable planter as it is ideal for creating your own home allotment, but it can actually be used for growing anything you like.

If you’d like to welcome more birds into your garden then why not build your own bird table, lavish it with food and watch as your new feathered friends enjoy your handy work.

The final project is the small bird aviary that can also be adapted to house other animals such as rabbits, guinea pigs and many other furry or feathered friends.

Budding carpenters

This course is perfect for the complete beginner and is ideal for developing your skills as a DIY carpenter without spending a fortune.

Who this course is for:
Anybody interested in developing DIY skills
Budding carpenters
Gardeners wanting to create their own planters
Those who wish to grow their own fruit and vegetables at home
Bird or pet lovers who want to create a beautiful bird table or an aviary (animal enclosure) to keep pets in

also You can find my other helpful Woodworking-posts
(if old file-links don't show activity, try copy-paste them to the address bar)

MediaInfo: General
Complete name : 6. Completing the other corners.mp4
Format : MPEG-4
Format profile : Base Media
Codec ID : isom (isom/iso2/avc1/mp41)
File size : 36.4 MiB
Duration : 1 min 49 s
Overall bit rate : 2 784 kb/s
Writing application : Lavf58.12.100

Video
ID : 1
Format : AVC
Format/Info : Advanced Video Codec
Format profile : Main@L3.1
Format settings : CABAC / 4 Ref Frames
Format settings, CABAC : Yes
Format settings, RefFrames : 4 frames
Format settings, GOP : M=4, N=60
Codec ID : avc1
Codec ID/Info : Advanced Video Coding
Duration : 1 min 49 s
Bit rate : 2 648 kb/s
Nominal bit rate : 3 000 kb/s
Width : 1 280 pixels
Height : 720 pixels
Display aspect ratio : 16:9
Frame rate mode : Constant
Frame rate : 30.000 FPS
Color space : YUV
Chroma subsampling : 4:2:0
Bit depth : 8 bits
Scan type : Progressive
Bits/(Pixel*Frame) : 0.096
Stream size : 34.6 MiB (95%)
Writing library : x264 core 148
Encoding settings : cabac=1 / ref=3 / deblock=1:0:0 / analyse=0x1:0x111 / me=umh / subme=6 / psy=1 / psy_rd=1.00:0.00 / mixed_ref=1 / me_range=16 / chroma_me=1 / trellis=1 / 8x8dct=0 / cqm=0 / deadzone=21,11 / fast_pskip=1 / chroma_qp_offset=-2 / threads=22 / lookahead_threads=3 / sliced_threads=0 / nr=0 / decimate=1 / interlaced=0 / bluray_compat=0 / constrained_intra=0 / bframes=3 / b_pyramid=2 / b_adapt=1 / b_bias=0 / direct=1 / weightb=1 / open_gop=0 / weightp=2 / keyint=60 / keyint_min=6 / scenecut=0 / intra_refresh=0 / rc_lookahead=60 / rc=cbr / mbtree=1 / bitrate=3000 / ratetol=1.0 / qcomp=0.60 / qpmin=0 / qpmax=69 / qpstep=4 / vbv_maxrate=3000 / vbv_bufsize=6000 / nal_hrd=none / filler=0 / ip_ratio=1.40 / aq=1:1.00

Audio
ID : 2
Format : AAC
Format/Info : Advanced Audio Codec
Format profile : LC
Codec ID : mp4a-40-2
Duration : 1 min 49 s
Bit rate mode : Constant
Bit rate : 128 kb/s
Channel(s) : 2 channels
Channel positions : Front: L R
Sampling rate : 44.1 kHz
Frame rate : 43.066 FPS (1024 SPF)
Compression mode : Lossy
Stream size : 1.67 MiB (5%)
Default : Yes
Alternate group : 1 Screenshots
× 5 Creative Woodworking Projects | Bumper DIY Course Close
× 5 Creative Woodworking Projects | Bumper DIY Course Close
× 5 Creative Woodworking Projects | Bumper DIY Course Close
× 5 Creative Woodworking Projects | Bumper DIY Course Close
✅ Exclusive eLearning Videos ParRus-blog ← add to bookmarks
Feel free to contact me PM
when links are dead or want any repost
× 5 Creative Woodworking Projects | Bumper DIY Course Close



Download File Size:2.74 GB


5 Creative Woodworking Projects Bumper DIY Course
€10
Customers who bought this program also bought:

Home| All Programs| Today added Progs| Download Status| Customers opinion| Helpdesk| Shopping cart      
Copyright 2006-2020 ©   LPStore   All Rights Reserved





Adobe Acrobat Pro DC 2020.006.20042 Multilingual €70


Mathworks MATLAB R2019b 9.7.0 x64 (1 dvd) €100


Adobe Acrobat DC 19.021.20061 for Mac €70






Intuit QuickBooks Enterprise Accountant 18.0 R4 €40


Mindjet MindManager 2020 Multilingual €20


Chief Architect Premier X12 €50






FileMaker Pro 18 Advanced 18.0.3.317 Multilingual €60


Pinnacle Studio Ultimate 23.1.0.231 with Content Pack €25


CorelDRAW Graphics Suite 2020 Multilingual €65